#TITLE:Tomorrow;
#SUBTITLE:~Ganos original~;
#ARTIST:nc ft. Dreamscanner;
#TITLETRANSLIT:;
#SUBTITLETRANSLIT:;
#ARTISTTRANSLIT:;
#CREDIT:;
#BANNER:Tomorrow.png;
#BACKGROUND:Tomorrow-bg.png;
#LYRICSPATH:;
#CDTITLE:GanosCD.PNG;
#MUSIC:Tomorrow.mp3;
#OFFSET:-5.180;
#SAMPLESTART:63.690;
#SAMPLELENGTH:12.000;
#SELECTABLE:YES;
#BPMS:0.000=140.000,32.000=35.000,33.000=70.000,85.000=140.000,113.000=70.000,115.000=140.000;
#STOPS:;
#BGCHANGES:;
// cache tags:
#FIRSTBEAT:0.000;
#LASTBEAT:147.000;
#SONGFILENAME:Songs/Chilean Keyboard Megapack 3/(Ganos)Tomorrow/Tomorrow.sm;
#HASMUSIC:1;
#HASBANNER:1;
#MUSICLENGTH:97.648;
// end cache tags

//---------------dance-single - ----------------
#NOTES:
     dance-single:
     :
     Challenge:
     11:
     0.885,1.000,0.870,0.533,1.000,468.000,85.000,52.000,0.000,0.000:
1001
0000
0010
0000
0100
0000
0001
0000
1000
0010
1000
0100
1000
0000
0001
0000
,
1010
0000
0100
0000
1000
0000
0010
0000
0100
0010
0100
0001
0100
0000
0010
0000
,
1001
0000
0100
0000
0010
0000
0100
0000
1000
0001
1000
0010
1000
0000
0100
0000
,
0011
0000
1000
0000
0001
0000
0010
0000
0100
0010
0100
0001
0100
0000
1000
0000
,
0110
0000
1000
0000
0100
0000
0010
0000
0100
1000
0100
0010
0100
0000
1000
0000
,
0101
0000
0010
0000
1000
0000
0001
0000
0010
0001
0010
0100
0010
0000
0001
0000
,
1100
0001
1000
0010
1000
0100
1000
0010
1001
0010
0100
0010
1000
0100
0010
0001
,
1100
0000
0010
0000
0100
0000
0001
0000
0010
0000
0100
0000
1000
0000
0100
0000
0010
0001
0010
0001
0100
0001
0100
0001
1000
0010
1000
0010
0100
0001
0100
0001
,
2000
0000
0000
0000
0000
0000
0000
0000
3001
0000
0000
1000
0000
0000
1000
0000
0000
0000
0001
0000
1000
0000
0100
0000
1000
0000
0000
0001
0000
0000
0001
0000
,
0000
0000
0001
0000
0100
0000
0010
0000
1000
0000
0000
0001
0000
0000
0001
0000
0000
0000
0001
0000
0010
0000
0100
0000
1000
0000
0000
0010
0000
0000
0010
0000
,
0000
0000
1000
0000
0100
0000
0010
0000
0001
0000
0000
1000
0000
0000
1000
0000
0000
0000
0100
0000
0010
0000
0001
0000
0100
0000
0000
0010
0000
0000
0010
0000
,
0000
0000
0010
0000
1000
0000
0100
0000
0010
0000
0000
0001
0000
0000
0001
0000
0000
0000
1000
0000
0100
0000
0010
0000
0100
0000
0000
1000
0000
0000
1000
0000
,
0000
0000
0000
0000
2000
3000
0000
0000
0002
0003
0000
0000
0200
0300
0000
0000
0020
0030
0000
0000
0000
0000
0200
0300
0000
0000
0000
0000
0200
0300
0000
0000
0000
0000
0000
0000
0002
0003
0000
0000
0020
0030
0000
0000
0200
0300
0000
0000
2000
3000
0000
0000
0000
0000
0020
0030
0000
0000
0000
0000
0020
0030
0000
0000
,
0000
0000
0000
0000
0200
0300
0000
0000
0002
0003
0000
0000
2000
3000
0000
0000
0200
0300
0000
0000
0000
0000
0020
0030
0000
0000
0000
0000
0020
0030
0000
0000
0000
0000
0000
0000
0002
0003
0000
0000
0020
0030
0000
0000
0200
0300
0000
0000
2000
3000
0000
0000
0000
0000
0020
0030
0000
0000
0000
0000
0020
0030
0000
0000
,
0000
0000
0000
0000
0200
0300
0000
0000
0002
0003
0000
0000
0020
0030
0000
0000
0200
0300
0000
0000
0000
0000
2000
3000
0000
0000
0000
0000
2000
3000
0000
0000
0000
0000
0000
0000
0020
0030
0000
0000
0200
0300
0000
0000
0002
0003
0000
0000
0020
0030
0000
0000
0000
0000
0002
0003
0000
0000
0000
0000
0002
0003
0000
0000
,
0000
0000
0000
0000
2000
3000
0000
0000
0020
0030
0000
0000
0200
0300
0000
0000
0002
0003
0000
0000
0000
0000
2000
3000
0000
0000
0000
0000
2000
3000
0000
0000
0000
0000
0000
0000
0200
0300
0000
0000
0020
0030
0000
0000
0002
0003
0000
0000
0200
0300
0000
0000
0000
0000
0020
0030
0000
0000
0000
0000
0020
0030
0000
0000
,
0000
0000
0000
0000
2000
3000
0000
0000
0002
0003
0000
0000
2000
3000
0000
0000
0101
0000
0000
0000
0000
0000
0000
0000
1100
0000
0000
0000
0000
0000
0000
0000
0101
0000
0000
0000
0001
0000
0000
0000
0001
0000
0000
0000
0001
1000
0001
1000
0001
0000
0000
0000
0000
0000
0000
0000
0110
0000
0000
0000
0000
0000
0000
0000
,
0110
0000
0000
0000
0100
0000
0000
0000
0100
0000
0000
0000
0100
0010
0100
0010
1100
0000
0000
0000
0000
0000
0000
0000
0011
0000
0000
0000
0000
0000
0000
0000
1100
0000
0000
0000
1000
0000
0000
0000
1000
0000
0000
0000
1000
0001
1000
0001
1000
0000
0000
0000
0000
0000
0000
0000
0011
0000
0000
0000
0000
0000
0000
0000
,
0101
0000
0000
0000
0100
0000
0000
0000
0100
0000
0000
0000
0100
0001
0100
0001
1100
0000
0000
0000
0000
0000
0000
0000
0110
0000
0000
0000
0000
0000
0000
0000
0110
0000
0000
0000
0010
0000
0000
0000
0010
0000
0000
0000
0010
1000
0010
1000
0011
0000
0000
0000
0000
0000
0000
0000
1100
0000
0000
0000
0000
0000
0000
0000
,
0101
0000
0000
0000
0001
0000
0000
0000
0001
0000
0000
0000
0001
1000
0001
1000
0011
0000
0000
0000
0001
0000
0000
0000
0001
0000
0000
0000
0001
1000
0001
1000
0010
0000
0000
0000
0010
0000
0000
0000
0010
0000
0000
0000
0010
1000
0010
1000
0001
0000
1000
0000
0001
0000
1000
0000
0001
0000
1000
0000
0001
0000
1000
0000
,
0001
0000
1000
0000
0001
0000
1000
0000
0001
0000
1000
0000
0001
0000
1000
0000
0001
0000
0001
0000
0001
0000
0001
0000
1000
0000
0000
0000
0000
0000
0000
0000
0000
0000
0000
0000
0100
0100
0100
0100
0100
0100
0100
0100
0100
0100
0100
0100
0100
0000
0000
0000
0000
0000
0000
0000
0000
0000
0000
0000
0000
0000
0000
0000
,
0000
1000
0100
0010
0101
0000
0000
0010
1001
0000
0010
0000
0101
0000
1000
0000
,
0011
0000
1000
0000
0110
0000
0000
1000
0101
0000
0010
0000
1100
0000
0010
0000
,
0101
0000
0010
0000
1001
0000
0000
0010
1100
0000
0010
0000
0101
0000
1000
0000
,
0110
0000
0001
0000
1100
0000
0000
0010
0101
0000
1000
0000
0110
0000
0001
0000
,
1010
0000
0100
0000
0011
0000
0000
0100
1001
0000
0010
0000
1100
0000
0010
0000
,
0101
0000
0010
0000
1001
0000
0000
1000
0011
0000
1000
0000
0110
0000
0001
0000
,
1100
0000
0010
0000
0101
0000
0000
1000
0110
0000
0001
0000
1010
0000
0100
0000
,
1001
0000
0000
0000
0010
0000
0000
0000
0101
0000
0000
1000
0000
0000
1000
0000
0000
0000
0001
0000
0010
0000
0100
0000
1001
0000
0000
0000
0010
0000
1000
0000
,
0101
0000
0010
0000
1001
0100
0010
0001
0110
0000
1000
0000
0011
0000
1000
0010
,
1001
0000
0100
0000
0011
1000
0100
1000
0011
0000
1000
0000
0101
0000
0010
0001
,
1100
0000
0010
0000
1001
0100
0010
0100
1001
0000
0100
0010
1001
0000
0010
0100
,
1010
0000
0001
0010
1100
0010
0001
0100
1010
0000
0010
0000
1001
0000
0100
0010
,
1001
0000
0100
0000
0011
1000
0100
1000
0011
0000
1000
0000
0110
0000
0001
0100
,
1010
0000
0100
0000
0011
1000
0010
0100
1001
0000
0100
0000
0011
0000
1000
0100
,
0011
0000
1000
0000
0110
1000
0001
0010
1100
0000
0010
0000
1001
0100
0010
0100
,
0010
0000
1000
0000
0100
0000
0010
0000
0001
0010
0001
0010
0100
1000
0100
1000
0010
0100
0010
0100
0001
1000
0001
1000
0110
0000
0000
0000
0000
0000
0000
0000
;
